站內搜索

搜索
熱搜: 活動 交友 discuz

HKAnime討論區

[高品質壓制] 咒術迴戰 粵日雙語繁體字幕 (BDRip 1920x1080 x264 10bit FLAC AAC)

  • TA的每日心情
    開心
    2022-2-14 03:35 AM
  • 簽到天數: 1 天

    [LV.1]初來乍到

    23

    主題

    30

    帖子

    50

    積分

    出道偶像

    Rank: 2

    積分
    50
    發表於 2022-2-14 04:34:32 | 顯示全部樓層 |閱讀模式
    本帖最後由 卡比獸 於 2022-2-14 04:35 AM 編輯


    [影片名稱]:咒術迴戰
    [影片格式]:BDRip 1920x1080 x264 10bit FLAC AAC
    [影片大小]:1.6GB一集
    [影片狀態]:XXXXXX
    [影片集數]:24
    [字幕類型]:繁體
    [儲存空間]:torrent
    [資源來源]:BT之家 https://www.btbtt20.com/thread-index-fid-981-tid-4595382.htm
    簡介:

    BD编码重压资源:[IrizaRaws] Jujutsu Kaisen (BDRip 1920x1080 x264 10bit FLAC)
                                https://nyaa.si/view/1427762
    中文简繁字幕资源:[豌豆字幕组&风之圣殿&LoliHouse] 咒术回战 / Jujutsu Kaisen [01-24 修正合集 v3][WebRip 1080p HEVC-10bit AAC][简繁内封字幕][Fin]
                                  https://share.dmhy.org/topics/vi ... -10bit_AAC_Fin.html
    粤语音轨资源:哔哩哔哩弹幕视频网_咒术回战 粤配版
                           https://www.bilibili.com/bangumi/media/md28234882/
    粤语字幕资源:嗶哩嗶哩彈幕視頻網_咒術迴戰 粵配版(僅限港澳台地區)
                           https://www.bilibili.com/bangumi/media/md28234892/



    General
    Unique ID                      : 170553154681037681734435098264437030223 (0x804F57BFD6F80769189A0A8A0B807D4F)
    Complete name                  : D:\[整合] Jujutsu Kaisen [BDRip 1080p x264-10bit FLAC(Japanese) AAC(Cantonese) ASSx2(CHS,CHT) SRT(CHT)]\[整合] Jujutsu Kaisen - 15 [BDRip 1080p x264-10bit FLAC(Japanese) AAC(Cantonese) ASSx2(CHS,CHT) SRT(CHT)].mkv
    Format                         : Matroska
    Format version                 : Version 4
    File size                      : 1.95 GiB
    Duration                       : 23 min 57 s
    Overall bit rate mode          : Variable
    Overall bit rate               : 11.6 Mb/s
    Encoded date                   : UTC 2021-09-04 05:55:10
    Writing application            : mkvmerge v61.0.0 ('So') 64-bit
    Writing library                : libebml v1.4.2 + libmatroska v1.6.4
    Attachments                    : simhei.ttf / 方正粗圆_GBK.ttf / 方正隶变_GBK.ttf / 方正细雅宋_GBK.ttf / 方正中雅宋_GBK.ttf / 方正准圆_GBK.ttf / A-OTF-RyuminPr5-Medium.otf / FZZhengHei-M-GBK.ttf

    Video
    ID                             : 1
    Format                         : AVC
    Format/Info                    : Advanced Video Codec
    Format profile                 : High [email protected]
    Format settings                : CABAC / 8 Ref Frames
    Format settings, CABAC         : Yes
    Format settings, Reference fra : 8 frames
    Codec ID                       : V_MPEG4/ISO/AVC
    Duration                       : 23 min 57 s
    Bit rate                       : 9 373 kb/s
    Width                          : 1 920 pixels
    Height                         : 1 080 pixels
    Display aspect ratio           : 16:9
    Frame rate mode                : Constant
    Frame rate                     : 23.976 (24000/1001) FPS
    Color space                    : YUV
    Chroma subsampling             : 4:2:0
    Bit depth                      : 10 bits
    Scan type                      : Progressive
    Bits/(Pixel*Frame)             : 0.189
    Stream size                    : 1.57 GiB (81%)
    Title                          : BDRip x264-10bit [IrizaRaws]
    Writing library                : x264 core 163 r3059 b684ebe
    Encoding settings              : cabac=1 / ref=8 / deblock=1:-2:-2 / analyse=0x3:0x113 / me=umh / subme=9 / psy=1 / psy_rd=0.70:0.00 / mixed_ref=0 / me_range=32 / chroma_me=1 / trellis=2 / 8x8dct=1 / cqm=0 / deadzone=21,11 / fast_pskip=0 / chroma_qp_offset=-2 / threads=22 / lookahead_threads=3 / sliced_threads=0 / nr=0 / decimate=1 / interlaced=0 / bluray_compat=0 / constrained_intra=0 / bframes=9 / b_pyramid=2 / b_adapt=2 / b_bias=0 / direct=0 / weightb=1 / open_gop=0 / weightp=2 / keyint=250 / keyint_min=23 / scenecut=40 / intra_refresh=0 / rc=crf / mbtree=0 / crf=17.5 / qcomp=1.00 / qpmin=0 / qpmax=40 / qpstep=4 / ip_ratio=1.40 / pb_ratio=1.30 / aq=1:1.00
    Default                        : Yes
    Forced                         : No

    Audio #1
    ID                             : 2
    Format                         : FLAC
    Format/Info                    : Free Lossless Audio Codec
    Codec ID                       : A_FLAC
    Duration                       : 23 min 57 s
    Bit rate mode                  : Variable
    Bit rate                       : 1 496 kb/s
    Channel(s)                     : 2 channels
    Channel layout                 : L R
    Sampling rate                  : 48.0 kHz
    Frame rate                     : 11.719 FPS (4096 SPF)
    Bit depth                      : 24 bits
    Compression mode               : Lossless
    Stream size                    : 256 MiB (13%)
    Title                          : Main FLAC 2.0
    Writing library                : libFLAC 1.3.3 (UTC 2019-08-04)
    Language                       : Japanese
    Default                        : Yes
    Forced                         : No

    Audio #2
    ID                             : 3
    Format                         : AAC LC
    Format/Info                    : Advanced Audio Codec Low Complexity
    Codec ID                       : A_AAC-2
    Duration                       : 23 min 55 s
    Bit rate                       : 320 kb/s
    Channel(s)                     : 2 channels
    Channel layout                 : L R
    Sampling rate                  : 48.0 kHz
    Frame rate                     : 46.875 FPS (1024 SPF)
    Compression mode               : Lossy
    Delay relative to video        : 1 s 0 ms
    Stream size                    : 54.7 MiB (3%)
    Title                          : Cantonese - AAC (M4A) [B-Mainland]
    Language                       : Chinese
    Default                        : No
    Forced                         : No

    Text #1
    ID                             : 4
    Format                         : ASS
    Codec ID                       : S_TEXT/ASS
    Codec ID/Info                  : Advanced Sub Station Alpha
    Duration                       : 23 min 54 s
    Bit rate                       : 96 b/s
    Count of elements              : 346
    Compression mode               : Lossless
    Stream size                    : 17.0 KiB (0%)
    Title                          : CHS - ASS [BeanSub&FZSD&LoliHouse]
    Language                       : Chinese
    Default                        : Yes
    Forced                         : No

    Text #2
    ID                             : 5
    Format                         : ASS
    Codec ID                       : S_TEXT/ASS
    Codec ID/Info                  : Advanced Sub Station Alpha
    Duration                       : 23 min 54 s
    Bit rate                       : 96 b/s
    Count of elements              : 346
    Compression mode               : Lossless
    Stream size                    : 17.0 KiB (0%)
    Title                          : CHT - ASS [BeanSub&FZSD&LoliHouse]
    Language                       : Chinese
    Default                        : No
    Forced                         : No

    Text #3
    ID                             : 6
    Format                         : UTF-8
    Codec ID                       : S_TEXT/UTF8
    Codec ID/Info                  : UTF-8 Plain Text
    Duration                       : 23 min 52 s
    Bit rate                       : 48 b/s
    Count of elements              : 348
    Stream size                    : 8.45 KiB (0%)
    Title                          : CHT - SRT [Cantonese(Reference)] [B-HMT]
    Language                       : Chinese
    Default                        : No
    Forced                         : No

    Menu
    00:00:00.000                   : Intro
    00:02:28.106                   : OP
    00:03:58.071                   : Part A
    00:13:04.075                   : Part B
    00:20:46.078                   : ED
    00:22:16.084                   : Jujusanpo #13
    00:23:46.049                   : Preview


    遊客,如果您要查看本帖隱藏內容請回復

    回復

    使用道具 舉報

  • TA的每日心情
    開心
    2022-2-18 02:11 PM
  • 簽到天數: 1 天

    [LV.1]初來乍到

    1

    主題

    5

    帖子

    11

    積分

    亮晶晶研究生

    Rank: 1

    積分
    11
    發表於 2022-2-18 15:13:26 | 顯示全部樓層
    下載項目:
    心得感想:感謝樓主的分享
    回復 支持 反對

    使用道具 舉報

  • TA的每日心情

    1645164661
  • 簽到天數: 1 天

    1

    主題

    4

    帖子

    8

    積分

    亮晶晶研究生

    Rank: 1

    積分
    8
    發表於 2022-2-18 23:27:20 | 顯示全部樓層
    下載項目:咒術迴戰
    心得感想:謝謝分享
    回復 支持 反對

    使用道具 舉報

    該用戶從未簽到

    1

    主題

    3

    帖子

    7

    積分

    亮晶晶研究生

    Rank: 1

    積分
    7
    發表於 4 天前 | 顯示全部樓層
    感謝分享
    回復

    使用道具 舉報

  • TA的每日心情
    無聊
    2 小時前
  • 簽到天數: 6 天

    [LV.2]偶爾看看I

    1

    主題

    18

    帖子

    60

    積分

    出道偶像

    Rank: 2

    積分
    60
    發表於 3 天前 | 顯示全部樓層
    下載項目:
    心得感想:感谢分享,听讲配音麻麻
    回復 支持 反對

    使用道具 舉報

  • TA的每日心情
    開心
    昨天 09:59 AM
  • 簽到天數: 60 天

    [LV.6]常住居民II

    2

    主題

    18

    帖子

    385

    積分

    主流偶像

    Rank: 3Rank: 3

    積分
    385
    發表於 前天 02:13 PM 來自手機 | 顯示全部樓層
    非常感謝分享
    回復 支持 反對

    使用道具 舉報

    您需要登錄後才可以回帖 登錄 | 立即註冊

    本版積分規則

    Archiver|手機版|小黑屋|HKAnime討論區

    Powered by Discuz! X3.4 © 2001-2013 Comsenz Inc.