站內搜索

搜索
熱搜: 活動 交友 discuz

HKAnime討論區

[高品質壓制] [粵語] Dr.STONE 新石紀 第一季 1080p 1~24集

  • TA的每日心情
    開心
    2022-2-14 03:35 AM
  • 簽到天數: 1 天

    [LV.1]初來乍到

    23

    主題

    30

    帖子

    50

    積分

    出道偶像

    Rank: 2

    積分
    50
    發表於 2022-2-14 05:14:20 | 顯示全部樓層 |閱讀模式
    本帖最後由 卡比獸 於 2022-3-31 06:55 AM 編輯

    [影片名稱]:Dr.STONE 新石紀 S1
    [影片格式]:WEBRip 1920x1080 AVC 25fps AAC PGS+SRT ViuTV CAN CHT, 只有粵語音軌
    [影片大小]:約350 ~ 450 mb/集
    [影片集數]:全24集

    [字幕類型]:ViuTV CHT
    [儲存空間]: Google Drive
    [資源來源]: DMHY https://dmhy.anoneko.com/topics/list?keyword=Dr.STONE+%E7%B2%B5
    簡介:


    General
    Unique ID                      : 210626510058500495555080548653390588051 (0x9E7530B63670E284D731A3D2B1A76893)
    Complete name                  : F:\Dr. Stone\Dr.STONE 石紀元 S1 [粵語+內封繁體中文雙字幕]\[jibaketa]Dr.STONE - 01 (WEB 1920x1080 AVC AAC PGS+SRT VIUTV CAN CHT).mkv
    Format                         : Matroska
    Format version                 : Version 4
    File size                      : 360 MiB
    Duration                       : 23 min 2 s
    Overall bit rate               : 2 186 kb/s
    Encoded date                   : UTC 2021-09-12 04:40:05
    Writing application            : mkvmerge v61.0.0 ('So') 64-bit
    Writing library                : libebml v1.4.2 + libmatroska v1.6.4

    Video
    ID                             : 1
    Format                         : AVC
    Format/Info                    : Advanced Video Codec
    Format profile                 : [email protected]
    Format settings                : CABAC / 4 Ref Frames
    Format settings, CABAC         : Yes
    Format settings, Reference fra : 4 frames
    Codec ID                       : V_MPEG4/ISO/AVC
    Duration                       : 23 min 2 s
    Bit rate                       : 2 028 kb/s
    Width                          : 1 920 pixels
    Height                         : 1 080 pixels
    Display aspect ratio           : 16:9
    Frame rate mode                : Constant
    Frame rate                     : 25.000 FPS
    Color space                    : YUV
    Chroma subsampling             : 4:2:0
    Bit depth                      : 8 bits
    Scan type                      : Progressive
    Bits/(Pixel*Frame)             : 0.039
    Stream size                    : 334 MiB (93%)
    Language                       : Japanese
    Default                        : Yes
    Forced                         : No

    Audio
    ID                             : 2
    Format                         : AAC LC
    Format/Info                    : Advanced Audio Codec Low Complexity
    Codec ID                       : A_AAC-2
    Duration                       : 23 min 2 s
    Bit rate                       : 140 kb/s
    Channel(s)                     : 2 channels
    Channel layout                 : L R
    Sampling rate                  : 48.0 kHz
    Frame rate                     : 46.875 FPS (1024 SPF)
    Compression mode               : Lossy
    Delay relative to video        : 20 ms
    Stream size                    : 23.1 MiB (6%)
    Language                       : Chinese
    Default                        : Yes
    Forced                         : No

    Text #1
    ID                             : 3
    Format                         : PGS
    Muxing mode                    : zlib
    Codec ID                       : S_HDMV/PGS
    Codec ID/Info                  : Picture based subtitle format used on BDs/HD-DVDs
    Duration                       : 22 min 54 s
    Bit rate                       : 32.6 kb/s
    Count of elements              : 650
    Stream size                    : 5.34 MiB (1%)
    Language                       : Chinese
    Default                        : Yes
    Forced                         : No

    Text #2
    ID                             : 4
    Format                         : UTF-8
    Codec ID                       : S_TEXT/UTF8
    Codec ID/Info                  : UTF-8 Plain Text
    Duration                       : 22 min 54 s
    Bit rate                       : 53 b/s
    Count of elements              : 330
    Stream size                    : 9.06 KiB (0%)
    Language                       : Chinese
    Default                        : No
    Forced                         : No

    遊客,如果您要查看本帖隱藏內容請回復





    回復

    使用道具 舉報

  • TA的每日心情

    4 小時前
  • 簽到天數: 368 天

    [LV.9]以壇為家II

    1

    主題

    25

    帖子

    3279

    積分

    天神偶像

    Rank: 8Rank: 8

    積分
    3279
    發表於 2022-2-21 13:12:16 | 顯示全部樓層
    下載項目r.STONE 石紀元 S1
    心得感想:石化穿越未來·支持繼續更新 感謝樓主分享
    回復 支持 反對

    使用道具 舉報

    該用戶從未簽到

    1

    主題

    2

    帖子

    6

    積分

    亮晶晶研究生

    Rank: 1

    積分
    6
    發表於 2022-2-22 13:44:49 | 顯示全部樓層
    感谢楼主
    回復

    使用道具 舉報

    OOO
  • TA的每日心情

    前天 01:37 AM
  • 簽到天數: 920 天

    [LV.10]以壇為家III

    68

    主題

    576

    帖子

    4552

    積分

    天神偶像

    Rank: 8Rank: 8

    積分
    4552
    發表於 2022-2-23 06:38:47 | 顯示全部樓層
    多謝樓主分享好東西
    回復 支持 反對

    使用道具 舉報

    該用戶從未簽到

    1

    主題

    7

    帖子

    11

    積分

    亮晶晶研究生

    Rank: 1

    積分
    11
    發表於 2022-3-18 22:39:58 來自手機 | 顯示全部樓層
    Feel: Thank you . Good watching
    回復 支持 反對

    使用道具 舉報

    該用戶從未簽到

    1

    主題

    7

    帖子

    11

    積分

    亮晶晶研究生

    Rank: 1

    積分
    11
    發表於 2022-3-18 23:13:35 來自手機 | 顯示全部樓層
    Feel: Thank you . Good watching
    回復 支持 反對

    使用道具 舉報

  • TA的每日心情
    開心
    2022-3-23 09:54 AM
  • 簽到天數: 1 天

    [LV.1]初來乍到

    1

    主題

    3

    帖子

    9

    積分

    亮晶晶研究生

    Rank: 1

    積分
    9
    發表於 2022-3-23 10:05:26 | 顯示全部樓層
    下載項目: Dr.STONE 新石紀 S
    心得感想:謝謝分享!
    回復 支持 反對

    使用道具 舉報

  • TA的每日心情
    開心
    昨天 09:59 AM
  • 簽到天數: 60 天

    [LV.6]常住居民II

    2

    主題

    18

    帖子

    387

    積分

    主流偶像

    Rank: 3Rank: 3

    積分
    387
    發表於 2022-3-24 21:12:39 來自手機 | 顯示全部樓層
    tks for share
    回復 支持 反對

    使用道具 舉報

    該用戶從未簽到

    2

    主題

    4

    帖子

    8

    積分

    亮晶晶研究生

    Rank: 1

    積分
    8
    發表於 2022-5-16 07:01:41 | 顯示全部樓層
    多謝樓主,睇睇先!
    回復 支持 反對

    使用道具 舉報

  • TA的每日心情
    開心
    2 小時前
  • 簽到天數: 23 天

    [LV.4]偶爾看看III

    1

    主題

    5

    帖子

    80

    積分

    出道偶像

    Rank: 2

    積分
    80
    發表於 2022-6-4 15:42:42 | 顯示全部樓層
    Dr.STONE這動畫廣告我還未見過在99台出現的
    回復 支持 反對

    使用道具 舉報

    您需要登錄後才可以回帖 登錄 | 立即註冊

    本版積分規則

    Archiver|手機版|小黑屋|HKAnime討論區

    Powered by Discuz! X3.4 © 2001-2013 Comsenz Inc.